#TITLE:Do-dai;
#SUBTITLE:SDO China lv13 - [N]hok[Q] Simfile;
#ARTIST:Iori Minase;
#TITLETRANSLIT:;
#SUBTITLETRANSLIT:;
#ARTISTTRANSLIT:;
#CREDIT:[N]hok[Q] ;
#BANNER:bn-Idolm@ster.png;
#BACKGROUND:bg-Idolm@ster.png;
#LYRICSPATH:;
#CDTITLE:cd-Idolm@ster.png;
#MUSIC:Do-dai.mp3;
#OFFSET:-0.009;
#SAMPLESTART:68.791;
#SAMPLELENGTH:20.702;
#SELECTABLE:YES;
#DISPLAYBPM:171.000;
#BPMS:0.000=171.001,9.000=170.991,10.000=171.001,18.000=170.991,19.000=171.001,29.000=170.991,30.000=171.001,37.000=170.991,38.000=171.001,45.000=170.991,46.000=171.001,53.000=170.991,54.000=171.001,61.000=170.991,62.000=171.001,69.000=170.991,70.000=171.001,77.000=170.991,78.000=171.001,85.000=170.991,86.000=171.001,93.000=170.991,94.000=171.001,100.000=114.168,100.500=340.506,101.000=113.951,101.500=342.368,102.000=171.001,109.000=170.991,110.000=171.001,117.000=170.991,118.000=171.001,132.000=114.168,132.500=340.506,133.000=114.168,133.500=340.506,134.000=171.001,140.000=85.001,142.000=84.998,143.000=85.001,145.000=84.998,146.000=85.001,148.000=84.998,149.000=85.001,150.000=84.998,151.000=90.107,152.000=171.001,160.000=170.991,161.000=171.001,169.000=170.991,170.000=171.001,179.000=170.991,180.000=114.168,180.500=340.506,181.000=114.168,181.500=340.506,182.000=114.177,182.250=340.426,182.500=171.001,188.000=170.991,189.000=171.001,197.000=170.991,198.000=171.001,207.000=170.991,208.000=171.001,217.000=170.991,218.000=171.001,226.000=170.991,227.000=171.001,235.000=170.991,236.000=171.001,243.000=170.991,244.000=85.001,246.000=84.998,247.000=87.650,248.000=171.001,255.000=170.991,256.000=171.001,264.000=170.991,265.000=171.001,273.000=170.991,274.000=171.001,283.000=170.991,284.000=171.001,292.000=170.991,293.000=171.001,318.000=114.168,318.500=340.506,319.000=114.168,319.500=340.506,320.000=171.001,332.000=114.168,332.500=340.506,333.000=114.168,333.500=340.506,334.000=114.168,334.500=340.506,335.000=171.001;
#STOPS:;
#BGCHANGES:;
// cache tags:
#FIRSTBEAT:4.000;
#LASTBEAT:339.000;
#SONGFILENAME:Songs/SDO pack 4/Do-dai/Do-dai.sm;
#HASMUSIC:1;
#HASBANNER:1;
#MUSICLENGTH:124.896;
// end cache tags

//---------------dance-single - ----------------
#NOTES:
     dance-single:
     :
     Hard:
     13:
     1.000,1.000,1.000,0.008,0.444,729.000,389.000,1.000,0.000,24.000:
0000
0000
0000
0000
,
1010
0000
0100
0011
1010
0000
0010
0100
,
1001
1100
0000
0110
1100
0011
0110
0000
,
1000
0010
0100
0011
1100
0100
0010
0001
,
0100
0000
1100
0000
0001
0000
0110
0000
0011
0000
1100
0000
0011
1000
1000
0010
,
0101
0000
0100
0011
0110
1000
0010
0100
,
0001
0110
0010
0101
1010
0101
1001
0010
,
1001
0000
0010
0110
1010
0100
0011
1010
,
0100
1011
0100
1110
0001
0111
1000
0111
,
1100
0010
0110
0001
1100
0100
0011
1000
,
0011
0000
0100
0100
1010
0000
0001
0001
0110
0000
1010
1000
0101
0000
0010
0010
,
1100
0000
0001
0001
0110
0000
1000
1000
0101
0000
0010
0010
1100
0000
0001
0001
,
0110
0000
1000
1000
0101
0000
0010
0010
1100
0000
0010
0010
1100
0010
0001
0000
,
1100
0000
0010
0010
0101
0000
1000
1000
0110
0000
0001
0001
1100
0000
0010
0010
,
0101
0000
1000
1000
0110
0000
0001
0001
1010
0000
1100
0100
0011
0000
1000
1000
,
0101
0000
0010
0010
1100
0000
0001
0001
0110
0000
1000
1000
0101
0000
0010
0010
,
1000
0100
0010
0001
0100
0001
0010
1000
0110
0000
0001
0001
0110
0000
1000
1000
,
0011
0000
0011
0000
1000
0000
0101
0000
0101
0000
1000
1000
0011
0000
1100
0000
,
0010
0101
1010
0100
1110
0001
1000
0000
,
1000
0011
0100
0011
1000
0110
0010
1100
,
0001
0101
1000
0110
0001
1100
0010
0101
,
1010
0000
0101
0000
1001
0000
0101
0010
,
1100
0000
0010
0000
0101
0000
0010
0000
1001
0010
0100
0000
0011
0000
1000
0000
,
0100
0110
1000
0101
0010
0110
1000
0101
,
0010
0101
0010
1100
0100
0011
1000
0101
,
1001
0000
0000
0000
0101
0000
0000
0000
0110
0000
0010
0010
1001
0000
0110
0000
,
0000
0000
1010
0000
0101
0000
1010
0000
0101
0000
0010
0010
0100
0100
0001
0001
,
1000
0110
0011
1001
0110
0001
1010
0100
,
0001
0110
1100
0110
1001
0100
0011
1000
,
0100
0011
0101
1100
0110
0001
1010
0101
,
0010
0000
0101
0000
1010
0000
0100
0000
0011
0100
1000
0000
1001
0000
0100
0000
,
0001
0110
1100
0011
1001
0100
1010
0001
,
0100
0011
0110
1100
0110
0001
1010
0100
,
1011
0000
0000
0000
0111
0000
0000
0000
1001
0000
0010
0010
0100
0100
0001
1000
,
0010
0100
0001
1000
0010
1000
0001
0100
0010
0010
0100
0100
0001
0001
1000
1000
,
0101
0000
0010
1100
1100
0000
1001
0000
0010
1100
0000
1100
0011
0000
1001
0010
,
0100
0000
1000
0011
0011
0000
1001
0000
0110
0011
1100
0011
1010
0100
1001
0010
,
0100
0000
0000
0000
0000
0000
0000
0000
0000
1100
0000
0000
1100
0000
0000
0000
0000
0000
1001
0000
0000
0101
0000
0000
0000
0000
1001
0000
0000
0000
0000
0000
1001
0000
0000
0000
0000
0000
0101
0000
0000
0000
1010
0000
0000
0000
0000
0000
,
0110
0000
0001
0001
1100
0000
0010
0010
0101
0000
1000
1000
0110
0000
0001
0001
,
1100
0000
0010
0010
0101
0000
1000
1000
0110
0000
0001
0001
1010
0000
0100
0100
,
0011
0000
1000
1000
0110
0000
0001
0001
1100
0000
0010
0010
0101
0000
1000
1000
,
0011
0000
0100
0100
1010
0000
0001
0001
1100
0000
0110
0010
1001
0000
0101
0000
,
1010
0100
0011
1000
0110
0001
1010
0100
,
1010
0000
0101
0000
1010
0000
0101
0000
1010
0000
0011
0000
0011
0000
0100
0100
,
1001
0000
0011
0100
0010
0000
1100
0001
,
1110
0000
0000
0000
0111
0000
0000
0000
1110
0000
0001
0001
0010
0010
0100
0100
,
1001
0000
0101
1010
0110
0011
0110
1000
,
0010
0101
1100
0110
0011
0110
1100
0001
,
0110
1100
0110
0011
0110
1100
0010
0101
,
0010
0100
0011
0110
1010
0100
0101
1001
,
0010
0100
0011
1000
0101
0001
1100
0010
,
0101
0010
0100
0011
1100
0101
0110
1000
,
0110
0001
1010
0100
1001
0010
1001
0100
,
0011
1001
0010
1001
0100
1001
0010
1001
,
0110
0000
1000
0100
0011
0000
1010
0000
0101
0000
1010
0000
0101
0000
1000
0000
,
0010
0000
0100
1000
0011
0000
0110
0000
1100
0000
1010
0000
0101
0000
0010
0000
,
1100
0110
0011
1100
0001
0110
1100
0011
,
1000
0000
0010
0001
1100
0000
0110
0000
1010
0000
0101
0000
1010
0000
1001
0000
,
0110
1000
0101
0010
0100
1001
1001
0010
,
0110
0001
1100
0010
0100
1001
1001
0010
,
0110
0000
1000
0000
0101
0000
0010
0000
1100
0000
0101
0000
0101
0010
1000
0100
,
0011
0000
0000
0000
0000
0000
0000
0000
0000
0000
0000
0000
0100
0000
1001
0000
1010
0000
1001
0000
0010
0000
0100
0000
0001
0001
0010
0010
0100
0100
1000
1000
,
0011
0100
1010
0001
1100
0010
0110
0011
,
1000
0000
0010
0001
1100
0000
0110
0000
0101
0000
1010
0000
1010
0000
0100
0000
,
0011
0000
1000
0000
0110
0000
0001
0000
1010
0000
0100
0100
0011
0000
1010
0000
,
0100
0011
0110
1000
0101
0011
0011
1100
,
0010
0100
0011
0110
1100
0001
0101
0010
,
1001
0010
0110
1000
0100
0010
0110
1000
,
0011
0100
1010
0100
1001
0010
0110
0001
,
0100
0011
1000
0110
0001
1010
0101
1001
,
0011
0000
0000
1100
0011
0000
0000
1100
0011
0000
0110
0000
1100
0000
0011
0000
,
0100
0011
1100
0110
0011
1010
0101
0010
,
0101
1010
0101
1010
0110
1000
0101
0010
,
0100
0000
0010
0100
0011
0000
1010
0000
0101
0000
0010
0010
1100
0000
0101
0000
,
1010
0100
0011
1000
0010
0101
1001
0110
,
0001
0100
0011
1000
0101
1010
1001
0110
,
0001
1000
0101
0010
1000
0101
1001
0110
,
1011
1011
1110
0000
0000
0000
0010
0000
,
1011
0000
0000
1100
0111
0000
1011
0100
,
1010
0101
1010
0101
1101
0000
1001
0000
,
0111
0000
0000
0110
1011
0000
1110
0001
,
1100
0110
0011
1010
0111
1000
0101
0000
,
1010
1000
0001
0001
0100
0100
0011
0010
1100
0100
0001
0001
1000
1000
0011
0010
,
1101
1110
0111
1002
,
0000
0000
0000
0003
,
0000
0000
0000
0000
,
0000
0000
0000
0000
,
0000
0000
0000
0000
,
0000
0000
0000
0000
;

//---------------dance-solo - ----------------
#NOTES:
     dance-solo:
     :
     Hard:
     14:
     1.000,1.000,1.000,0.008,0.444,729.000,389.000,1.000,0.000,24.000:
000000
000000
000000
000000
,
100010
000000
010000
000101
100100
000000
000100
010000
,
100001
110000
000000
001010
101000
000011
001010
000000
,
100000
000010
001000
000011
101000
010000
000100
000001
,
010000
000000
110000
000000
000001
000000
010100
000000
000101
000000
110000
000000
000101
100000
100000
000010
,
010001
000000
010000
000011
001010
100000
000010
001000
,
000001
001010
000010
001001
100010
001001
100001
000010
,
100001
000000
000100
010100
100100
010000
000101
100100
,
010000
100101
010000
101010
000001
001011
100000
001011
,
101000
000010
010100
000001
110000
010000
000101
100000
,
000101
000000
010000
010000
100100
000000
000001
000001
010100
000000
100100
100000
010001
000000
000010
000010
,
110000
000000
000001
000001
001010
000000
100000
100000
001001
000000
000010
000010
101000
000000
000001
000001
,
001010
000000
100000
100000
001001
000000
000010
000010
110000
000000
000010
000010
110000
000010
000001
000000
,
110000
000000
000100
000100
010001
000000
100000
100000
010100
000000
000001
000001
110000
000000
000100
000100
,
010001
000000
100000
100000
010100
000000
000001
000001
100100
000000
110000
001000
000011
000000
100000
100000
,
001001
000000
000010
000010
101000
000000
000001
000001
001010
000000
100000
100000
010001
000000
000010
000010
,
100000
010000
000010
000001
010000
000001
000100
100000
010100
000000
000001
000001
010100
000000
100000
100000
,
000101
000000
000101
000000
100000
000000
010001
000000
010001
000000
100000
100000
000011
000000
110000
000000
,
000010
001001
100010
001000
101010
000001
100000
000000
,
100000
000011
010000
000011
100000
010100
000100
110000
,
000001
010001
100000
010100
000001
110000
000100
010001
,
100010
000000
010001
000000
100001
000000
010001
000010
,
101000
000000
000010
000000
001001
000000
000010
000000
100001
000010
001000
000000
000011
000000
100000
000000
,
001000
001010
100000
010001
000010
010010
100000
010001
,
000100
010001
000100
110000
010000
000101
100000
010001
,
100001
000000
000000
000000
001001
000000
000000
000000
001010
000000
000010
000010
100001
000000
001010
000000
,
000000
000000
100010
000000
001001
000000
100010
000000
001001
000000
000010
000010
010000
010000
000001
000001
,
100000
010100
000101
100001
010100
000001
100100
010000
,
000001
010100
110000
001010
100001
001000
000011
100000
,
001000
000011
001001
101000
001010
000001
100010
010001
,
000010
000000
010001
000000
100100
000000
010000
000000
000101
010000
100000
000000
100001
000000
010000
000000
,
000001
010100
110000
000101
100001
010000
100010
000001
,
010000
000011
001010
101000
001010
000001
100010
001000
,
100011
000000
000000
000000
001011
000000
000000
000000
100001
000000
000100
000100
010000
010000
000001
100000
,
001000
010000
000001
100000
000100
100000
000001
010000
000100
000100
010000
010000
000001
000001
100000
100000
,
010001
000000
000010
101000
101000
000000
100001
000000
000010
101000
000000
101000
000011
000000
100001
000010
,
001000
000000
100000
000101
000101
000000
100001
000000
010100
000101
110000
000101
100100
010000
100001
000100
,
010000
000000
000000
000000
000000
000000
000000
000000
000000
101000
000000
000000
101000
000000
000000
000000
000000
000000
100001
000000
000000
001001
000000
000000
000000
000000
100001
000000
000000
000000
000000
000000
100001
000000
000000
000000
000000
000000
001001
000000
000000
000000
100010
000000
000000
000000
000000
000000
,
001010
000000
000001
000001
101000
000000
000100
000100
010001
000000
100000
100000
010100
000000
000001
000001
,
110000
000000
000100
000100
010001
000000
100000
100000
010010
000000
000001
000001
100010
000000
001000
001000
,
000011
000000
100000
100000
001010
000000
000001
000001
101000
000000
000010
000010
001001
000000
100000
100000
,
000011
000000
010000
010000
100100
000000
000001
000001
110000
000000
010100
000100
100001
000000
010001
000000
,
100100
010000
000101
100000
010100
000001
100010
010000
,
100010
000000
001001
000000
100010
000000
001001
000000
100010
000000
000011
000000
000011
000000
001000
001000
,
100001
000000
000011
010000
000010
000000
110000
000001
,
110100
000000
000000
000000
010101
000000
000000
000000
110100
000000
000001
000001
000100
000010
010000
010000
,
100001
000000
001001
100010
001010
000011
001010
100000
,
000010
001001
110000
010010
000101
010100
110000
000001
,
010100
110000
010100
000101
010100
110000
000010
001001
,
000010
001000
000011
001010
100010
001000
001001
100001
,
000100
010000
000101
100000
010001
000001
110000
000100
,
010001
000010
010000
000011
101000
001001
001010
100000
,
001010
000001
100010
001000
100001
000100
100001
010000
,
000101
100001
000100
100001
010000
100001
000100
100001
,
010010
000000
100000
001000
000011
000000
100010
000000
001001
000000
100010
000000
001001
000000
100000
000000
,
000010
000000
001000
100000
000011
000000
001010
000000
101000
000000
100010
000000
010001
000000
000010
000000
,
110000
010010
000101
110000
000001
010100
110000
000101
,
100000
000000
000100
000001
110000
000000
010100
000000
100100
000000
001001
000000
100010
000000
100001
000000
,
001010
100000
001001
000010
001000
100001
100001
000010
,
010100
000001
110000
000100
010000
100001
100001
000100
,
010100
000000
100000
000000
010001
000000
000010
000000
101000
000000
001001
000000
001001
000010
100000
001000
,
000011
000000
000000
000000
000000
000000
000000
000000
000000
000000
000000
000000
001000
000000
100001
000000
100010
000000
100001
000000
000010
000000
001000
000000
000001
000001
000010
000010
010000
010000
100000
100000
,
000011
010000
100100
000001
110000
000100
010100
000101
,
100000
000000
000100
000001
110000
000000
010100
000000
010001
000000
100100
000000
100010
000000
001000
000000
,
000011
000000
100000
000000
001010
000000
000001
000000
100010
000000
001000
001000
000011
000000
100010
000000
,
001000
000011
010010
100000
010001
000011
000011
110000
,
000100
010000
000101
010100
110000
000001
010001
000100
,
100001
000100
010010
100000
001000
000010
001010
100000
,
000011
001000
100010
001000
100001
000010
010010
000001
,
010000
000101
100000
010100
000001
100100
010001
100001
,
000101
000000
000000
110000
000101
000000
000000
110000
000011
000000
001010
000000
101000
000000
000011
000000
,
001000
000011
101000
001010
000011
100010
001001
000010
,
010001
100100
010001
100100
010100
100000
010001
000100
,
010000
000000
000100
010000
000101
000000
100010
000000
010001
000000
000010
000010
110000
000000
010001
000000
,
100010
001000
000011
100000
000010
001001
100001
001010
,
000001
001000
000011
100000
010001
100010
100001
010100
,
000001
100000
010001
000100
100000
010001
100001
010100
,
100101
100011
101010
000000
000000
000000
000010
000000
,
100011
000000
000000
101000
001011
000000
100011
010000
,
100010
010001
100100
010001
110001
000000
100001
000000
,
010101
000000
000000
010100
100101
000000
110100
000001
,
110000
001010
000011
100010
001011
100000
001001
000000
,
100010
100000
000001
000001
010000
010000
000011
000010
110000
010000
000001
000001
100000
100000
000101
000100
,
110001
110100
010101
001002
,
000000
000000
000000
000003
,
000000
000000
000000
000000
,
000000
000000
000000
000000
,
000000
000000
000000
000000
,
000000
000000
000000
000000
;
